#TITLE:Luv This Feelin' 10,000;
#SUBTITLE:;
#ARTIST:Chang-Ma;
#TITLETRANSLIT:;
#SUBTITLETRANSLIT:;
#ARTISTTRANSLIT:;
#CREDIT:;
#BANNER:;
#BACKGROUND:;
#LYRICSPATH:;
#CDTITLE:;
#MUSIC:LTF 10000.mp3;
#MUSICLENGTH:106.370;
#OFFSET:-0.560;
#SAMPLESTART:81.965;
#SAMPLELENGTH:12.000;
#SELECTABLE:YES;
#BPMS:0.000=115.200;
#STOPS:;
#BGCHANGES:;
#FIRSTBEAT:4.000;

#LASTBEAT:202.000;

#SONGFILENAME:Songs/ERICth The 3rd/Luv This Feelin 10000/LTF 10000.sm;

#HASMUSIC:1;

#HASBANNER:0;


//---------------dance-single - MANIAC----------------
#NOTES:
     dance-single:
     MANIAC:
     hard:
     7:
     0.395,0.356,0.197,0.047,0.028,268.000,21.000,5.000,0.000,0.000:

0000
0000
0000
0000
,
1000
0000
0100
0000
0001
0010
0100
0000
,
0001
0000
0100
0000
1000
0010
0100
0000
,
1000
0000
0010
0000
0100
0010
0100
0000
,
0001
0000
1000
0000
0010
1000
0001
0000
,
0100
0000
0200
0000
0000
0000
0301
0001
,
0001
0000
0010
0000
0001
1000
0100
0010
,
0100
0100
0010
0001
,
1001
0100
1001
0010
,
0001
1000
0010
0001
0010
0000
1000
0100
,
0001
0000
0100
0000
0001
0000
1000
0010
,
0001
0010
1000
0100
1000
0000
0011
0000
,
1100
0000
0010
0001
0001
0000
0100
0001
,
0001
1000
0000
0000
0000
0000
0000
0000
,
1010
0000
0100
0000
0010
0000
0001
1000
,
0100
0000
1000
0100
1000
0010
0010
0000
,
0100
0001
0000
0001
1000
0000
0110
0000
,
1000
0100
0000
0100
0010
0000
0011
0001
,
1000
0000
0100
0000
0010
0010
1000
0000
,
0100
0000
0100
0000
0010
0000
0002
0000
0000
0000
0000
0000
1003
0000
0000
0100
,
0010
0000
0011
0000
1001
1000
0100
0000
,
0010
0001
0010
0001
0000
0000
0000
1000
,
0100
1000
0010
1000
0001
0001
0001
0000
,
0110
0000
1001
0000
0010
0001
1000
0000
,
0100
0010
0100
0001
,
0100
0000
1000
0100
0010
0000
0110
0000
,
0100
0000
0001
0100
0010
0000
0110
0000
,
1000
0010
0001
0010
1000
0100
1000
0000
,
1100
0101
0011
1010
,
0100
0010
0000
0010
1000
0000
1000
0001
,
0000
0001
1000
0000
0010
0100
0001
0000
,
1000
0100
0010
0010
0000
0010
0001
0000
,
1000
0100
1000
0000
0001
0010
0001
0000
,
1000
0010
0000
0000
0002
0000
0103
0000
,
0010
1000
0001
0100
0000
1000
0000
0001
,
0000
0010
0000
0100
0001
1000
0010
0000
,
0001
0000
1000
0000
0010
0100
0001
1000
,
0010
0000
0010
0000
0010
0000
0010
0000
1100
0000
0000
0000
0001
0000
0100
0010
,
0000
0000
1001
0000
0100
0010
0001
0000
,
0100
0010
0001
0000
0001
0001
1000
0100
,
0010
0000
0100
1000
0001
0000
0000
0000
,
1000
0010
0000
0000
0001
0100
0000
0000
0010
0001
0000
0000
0001
1000
0001
0000
,
0100
0010
0000
0010
0001
0000
0001
1000
,
0000
1000
0100
0010
0100
0010
0001
0000
,
0100
1000
0000
1000
0001
0000
0001
0010
,
0000
0010
0100
0100
0001
0001
0010
0000
,
1000
0000
0001
0000
0010
0100
0010
0000
,
0001
0000
1000
0000
0100
0010
0100
0000
,
0001
1000
0100
1000
0000
1000
0010
0000
,
1010
0000
0101
0000
1000
0100
0001
0100
,
2000
0002
0000
0000
3003
0000
0000
0000
,;

//---------------dance-single - ANOTHER----------------
#NOTES:
     dance-single:
     ANOTHER:
     medium:
     5:
     0.310,0.332,0.113,0.038,0.000,215.000,12.000,4.000,0.000,0.000:

0000
0000
0000
0000
,
0010
0000
1000
0000
0100
0100
0010
0000
,
0001
1000
0100
0010
,
0100
0000
0010
0010
,
0001
0000
0000
0000
1000
0000
0010
0010
,
0100
0001
0000
0000
,
0000
1000
0001
0000
0100
0000
0010
0000
,
0020
1000
0000
0031
,
1000
0000
0100
0000
0010
0000
0100
0100
,
0010
0001
1000
0100
,
1000
0000
0001
0000
0100
0000
0010
0100
,
0001
0000
1000
0000
0100
0000
0010
0100
,
1000
0001
0000
0100
,
1000
0001
0000
0000
0000
0000
0000
0000
,
0001
1000
0100
0010
,
0001
0000
1000
0000
0010
1000
0100
0000
,
0001
1000
0100
0010
,
1000
0000
0001
0000
0010
0001
0100
0000
,
1000
0010
0100
1000
,
0001
1000
0000
0000
0110
0000
0000
0000
,
0010
1000
0100
0100
,
0001
0010
0001
1000
0000
0000
0000
0001
,
0100
0100
0000
1000
,
0000
0001
0100
0010
,
0000
0001
1000
1000
,
0001
0000
0000
0000
1000
0100
1000
0000
,
0001
1000
0010
0000
0001
0000
1000
0000
,
0100
0000
0011
0000
1000
0010
0001
0000
,
1001
0110
1001
0110
,
1000
0100
0010
0100
,
1000
0000
0001
0000
0100
0000
0010
0100
,
0001
0000
0100
0000
0010
0000
1000
0010
,
1000
0000
0001
0000
0100
0000
0010
0010
,
0100
2000
0000
0000
0000
0000
3000
0000
,
0010
0001
1000
0000
0010
0001
1000
0000
,
0010
1000
0001
0000
0010
1000
0001
0000
,
1000
0001
0100
0000
1000
0001
0100
0000
,
0001
1000
0100
0000
0001
1000
0100
0000
,
0000
0000
1100
0000
0100
0010
0100
0000
,
0001
0000
0100
0000
0010
1000
0100
0000
,
0010
1000
0100
0001
,
0110
0000
0110
0000
1001
0000
1001
0001
,
0100
0000
1000
0010
0100
0000
0001
1000
,
0100
0010
0100
0001
,
1000
0001
0100
0000
0100
0001
1000
0000
,
0100
0000
0001
0000
1000
0000
0010
0001
,
0100
0100
0010
1000
,
1000
0000
0001
0001
0100
0000
0010
0000
,
1000
0100
0100
0000
0001
0000
0100
0100
,
0010
0000
0000
0010
1000
0000
0101
0000
,
0200
0002
0000
0000
0303
0000
0000
0000
,;

//---------------dance-single - BASIC----------------
#NOTES:
     dance-single:
     BASIC:
     easy:
     4:
     0.168,0.190,0.038,0.047,0.000,116.000,4.000,5.000,0.000,0.000:

0000
0000
0000
0000
,
0010
0000
0100
0000
,
1000
0000
0000
0001
,
0001
0000
1000
0000
,
0010
0000
0100
0000
,
0001
0000
0000
0000
0000
0000
0000
1000
,
0010
0000
0000
0100
,
0001
0000
0000
0000
,
1000
0010
0000
0100
,
0010
0100
1000
0000
,
0001
0100
0000
0010
,
1000
0000
0000
0000
0001
1000
0001
0000
,
0100
0000
0000
0010
,
0000
0000
0100
0000
0002
0000
0000
0003
,
1000
0000
0010
0000
,
0100
0000
0000
0000
0001
1000
0010
0000
,
0100
0000
0100
0000
,
1000
0000
0000
0000
0000
0000
0000
0010
,
0001
0000
1000
0000
,
0020
0000
0000
1000
,
1000
0030
0000
0000
0100
0000
0000
0000
,
0001
0000
0000
0010
,
0011
0000
0000
1000
,
0100
0000
0010
0010
,
1000
0000
0000
0001
,
0100
0000
0010
0000
0000
0000
0000
0100
,
0000
0000
0000
0000
0000
0001
0001
0000
,
0100
0000
0000
0010
,
0001
1000
0001
1000
,
0010
1000
0000
0000
,
0100
0010
0000
0000
,
0001
1000
0000
0000
,
0010
0001
0000
0000
,
0100
0000
0000
0000
0002
0000
0000
0003
,
0100
0100
0000
0000
,
1000
1000
0000
0000
,
0001
0001
0000
0000
,
0010
0010
0000
0000
,
1000
0000
0001
0000
,
0100
0000
0010
0000
0000
0000
0000
0100
,
1000
0000
0001
0000
,
0010
0100
0010
0100
,
0010
0000
0000
1000
,
0000
0001
0000
0010
,
0000
0100
0000
1100
,
0000
0011
0000
1100
,
0000
0100
0000
0010
,
1000
0100
0000
0001
,
0100
0000
0100
0010
,
0100
0000
0010
0001
,
2000
0200
0000
0000
3300
0000
0000
0000
,;
